HBO Documentaries In Vogue The Editors Eye (2014)

Category: TV Show | Comment: 0

Download Now

HBO Documentaries In Vogue The Editors Eye (2014)

HBO Documentaries In Vogue The Editors Eye (2014)
HDTV | 1280x720 | MKV/x264 @ 2458 Kbps | 59mn | Audio: English AC3 384 kbps, 2 channels | Subs: None | 1.21 GB
Genre: Documentary

N VOGUE: THE EDITOR'S EYE, coinciding with the 120th anniversary of Vogue, takes a look at some of the world's most influential fashion images as conceived by the magazine's iconic fashion editors.
"The people who are responsible for the fashion images are the fashion editors," says Anna Wintour, editor-in-chief of Vogue. "They have always been our secret weapon, so it seemed to me that we could celebrate Vogue, and also, at the same time, celebrate these great editors."

More info

Video
ID : 1
Format : AVC
Format/Info : Advanced Video Codec
Format profile : [email protected]
Format settings, CABAC : Yes
Format settings, ReFrames : 5 frames
Format settings, GOP : M=1, N=32
Codec ID : V_MPEG4/ISO/AVC
Duration : 59mn 45s
Bit rate : 2 458 Kbps
Width : 1 280 pixels
Height : 720 pixels
Display aspect ratio : 16:9
Frame rate : 23.976 fps
Color space : YUV
Chroma subsampling : 4:2:0
Bit depth : 8 bits
Scan type : Progressive
Bits/(Pixel*Frame) : 0.111
Stream size : 1.03 GiB (85%)
Writing library : x264 core 144 r2525 40bb568
Encoding settings : cabac=1 / ref=5 / deblock=1:0:0 / analyse=0x3:0x113 / me=umh / subme=8 / psy=1 / psy_rd=1.00:0.00 / mixed_ref=1 / me_range=16 / chroma_me=1 / trellis=1 / 8x8dct=1 / cqm=0 / deadzone=21,11 / fast_pskip=1 / chroma_qp_offset=-2 / threads=18 / lookahead_threads=3 / sliced_threads=0 / nr=0 / decimate=1 / interlaced=0 / bluray_compat=0 / constrained_intra=0 / bframes=3 / b_pyramid=2 / b_adapt=2 / b_bias=0 / direct=3 / weightb=1 / open_gop=0 / weightp=2 / keyint=250 / keyint_min=23 / scenecut=40 / intra_refresh=0 / rc_lookahead=50 / rc=crf / mbtree=1 / crf=20.0 / qcomp=0.60 / qpmin=0 / qpmax=69 / qpstep=4 / ip_ratio=1.40 / aq=1:1.00
Language : English
Matrix coefficients : BT.709-5, BT.1361, IEC 61966-2-4 709, SMPTE RP177

Audio
ID : 2
Format : AC-3
Format/Info : Audio Coding 3
Mode extension : CM (complete main)
Codec ID : A_AC3
Duration : 59mn 45s
Bit rate mode : Constant
Bit rate : 384 Kbps
Channel(s) : 2 channels
Channel positions : Front: L R
Sampling rate : 48.0 KHz
Bit depth : 16 bits
Compression mode : Lossy
Stream size : 164 MiB (13%)

HBO Documentaries In Vogue The Editors Eye (2014)


DOWNLOAD LINKS:
Buy Premium From My Links To Get Resumable Support,Max Speed & Support Me


Links are Interchangeable - No Password - Single Extraction
Direct Download


Tags: Documentaries, Editors

HBO Documentaries In Vogue The Editors Eye (2014) Fast Download via Rapidshare Hotfile Fileserve Filesonic Megaupload, HBO Documentaries In Vogue The Editors Eye (2014) Torrents and Emule Download or anything related.
Dear visitor, you went to website as unregistered user.
We encourage you to Register or Login to website under your name.
Information
Members of Guest cannot leave comments.