PBS - Secrets of the Dead: Deadliest Battle (2010)

Category: TV Show | Comment: 0

Download Now


PBS - Secrets of the Dead: Deadliest Battle (2010)
PBS - Secrets of the Dead: Deadliest Battle (2010)
HDTV | 1280x720 | .MKV/AVC @ 3477 Kbps | 53mn 38s | Audio: English AC3 384 kbps, 6 channels | Subs: English | 1.45 GiB
Genre: Documentary

"Germany's invasion of the Soviet Union in 1941 was the largest troop offensive in military history. And the Battle of Stalingrad is arguably the deadliest single battle the world has ever seen. The eventual Russian victory has long been lauded as a shining example of Stalin s military genius. He is said to have baited the much more powerful and technologically advanced German army with a carefully executed withdrawal, then caught the Nazis unprepared in vicious city-block-by-city-block fighting that decimated the German forces. By the time the battle was over, more than one million lives had been lost and the course of the war permanently altered."

General
Unique ID
: 171046026170345013963013004388814159301 (0x80AE4430A08B30E8A804663DBC15FDC5)
Complete name : PBS.Secrets.of.the.Dead.Deadliest.Battle.mkv
Format
: Matroska
Format version : Version 4 / Version 2
File size
: 1.45 GiB
Duration
: 53mn 38s
Overall bit rate : 3 863 Kbps

Video
ID : 1
Format
: AVC
Format/Info
: Advanced Video Codec
Format profile : [email protected]
Format settings, CABAC : Yes
Format settings, ReFrames : 6 frames
Codec ID
: V_MPEG4/ISO/AVC
Duration
: 53mn 38s
Bit rate
: 3 477 Kbps
Width
: 1 280 pixels
Height
: 720 pixels
Display aspect ratio : 16:9
Frame rate
: 29.970 fps
Color space
: YUV
Chroma subsampling

: 4:2:0
Bit depth
: 8 bits
Scan type
: Progressive
Bits/(Pixel*Frame)

: 0.126
Stream size
: 1.27 GiB (88%)
Title
: Secrets of the Dead - Deadliest Battle
Writing library : x264 core 66 r1092 60f4cd8
Encoding settings: cabac=1 / ref=6 / deblock=1:-1:-1 / analyse=0x3:0x113 / me=umh / subme=7 / psy_rd=1.0:1.0 / mixed_ref=1 / me_range=16 / chroma_me=1 / trellis=2 / 8x8dct=1 / cqm=2 / deadzone=21,11 / chroma_qp_offset=-4 / threads=6 / nr=0 / decimate=1 / mbaff=0 / bframes=6 / b_pyramid=1 / b_adapt=2 / b_bias=0 / direct=3 / wpredb=1 / keyint=250 / keyint_min=25 / scenecut=40(pre) / rc=2pass / bitrate=3477 / ratetol=1.0 / qcomp=0.60 / qpmin=10 / qpmax=51 / qpstep=4 / cplxblur=20.0 / qblur=0.5 / vbv_maxrate=25000 / vbv_bufsize=14000 / ip_ratio=1.40 / pb_ratio=1.30 / aq=1:1.00
Default
: Yes
Forced
: No

Audio
ID : 2
Format
: AC-3
Format/Info
: Audio Coding 3
Mode extension : CM (complete main)
Format settings, Endianness : Big
Codec ID
: A_AC3
Duration
: 53mn 38s
Bit rate mode : Constant
Bit rate
: 384 Kbps
Channel(s)
: 6 channels
Channel positions: Front: L C R, Side: L R, LFE
Sampling rate : 48.0 KHz
Bit depth
: 16 bits
Compression mode : Lossy
Stream size
: 147 MiB (10%)
Default
: Yes
Forced
: No

Text
ID : 3
Format
: UTF-8
Codec ID
: S_TEXT/UTF8
Codec ID/Info : UTF-8 Plain Text
Default
: No
Forced
: No

Screenshots:

PBS - Secrets of the Dead: Deadliest Battle (2010)

PBS - Secrets of the Dead: Deadliest Battle (2010)

PBS - Secrets of the Dead: Deadliest Battle (2010)

PBS - Secrets of the Dead: Deadliest Battle (2010)


DOWNLOAD LINKS:
Buy Premium To Support Me & Get Resumable Support & Max Speed


Links are Interchangeable - No Password - Single Extraction
Direct Download


Tags: Secrets, Deadliest, Battle

PBS - Secrets of the Dead: Deadliest Battle (2010) Fast Download via Rapidshare Hotfile Fileserve Filesonic Megaupload, PBS - Secrets of the Dead: Deadliest Battle (2010) Torrents and Emule Download or anything related.
Dear visitor, you went to website as unregistered user.
We encourage you to Register or Login to website under your name.
Information
Members of Guest cannot leave comments.