BBC - Ocean Queens: The Story of Cunard (2015)

Category: TV Show | Comment: 0

Download Now


BBC - Ocean Queens: The Story of Cunard (2015)
BBC - Ocean Queens: The Story of Cunard (2015)
WEBRip | 1280x720 | .MP4/AVC @ 3042 Kbps | 28mn 50s | Audio: English AAC 144 kbps, 2 channels | Subs: English | 658 MiB
Genre: Documentary

"As all three of Cunard's world-famous liners make an historic visit to Liverpool, Simon O'Brien reflects on 175 years of pioneering transatlantic travel. He uncovers the heroic stories of the people who sailed on the ships and reveals the legacy they brought back to the city."

General
Complete name : BBC.Ocean.Queens.The.Story.of.Cunard.mp4
Format
: MPEG-4
Format profile : Base Media
Codec ID
: isom
File size
: 658 MiB
Duration
: 28mn 50s
Overall bit rate mode : Variable
Overall bit rate : 3 190 Kbps

Video
ID : 1
Format
: AVC
Format/Info
: Advanced Video Codec
Format profile : [email protected]
Format settings, CABAC : No
Format settings, ReFrames : 1 frame
Format settings, GOP : M=1, N=12
Codec ID
: avc1
Codec ID/Info : Advanced Video Coding
Duration
: 28mn 50s
Bit rate
: 3 042 Kbps
Maximum bit rate : 8 235 Kbps
Width
: 1 280 pixels
Height
: 720 pixels
Display aspect ratio : 16:9
Frame rate mode : Constant
Frame rate
: 25.000 fps
Color space
: YUV
Chroma subsampling

: 4:2:0
Bit depth
: 8 bits
Scan type
: Progressive
Bits/(Pixel*Frame)

: 0.132
Stream size
: 628 MiB (95%)
Encoded date : UTC 2015-07-27 23:04:23
Tagged date
: UTC 2015-07-27 23:45:11

Audio
ID : 2
Format
: AAC
Format/Info
: Advanced Audio Codec
Format profile : LC
Codec ID
: 40
Duration
: 28mn 50s
Bit rate mode : Variable
Bit rate
: 144 Kbps
Maximum bit rate : 209 Kbps
Channel(s)
: 2 channels
Channel positions: Front: L R
Sampling rate : 48.0 KHz
Compression mode : Lossy
Stream size
: 30.1 MiB (5%)
Encoded date : UTC 2015-07-27 23:45:09
Tagged date
: UTC 2015-07-27 23:45:11

Text
ID : 3
Format
: Timed text
Codec ID
: tx3g
Duration
: 28mn 29s
Bit rate mode : Variable
Bit rate
: 128 bps
Stream size
: 26.8 KiB (0%)
Encoded date : UTC 2015-07-27 23:45:11
Tagged date
: UTC 2015-07-27 23:45:11

Screenshots:

BBC - Ocean Queens: The Story of Cunard (2015)

BBC - Ocean Queens: The Story of Cunard (2015)

BBC - Ocean Queens: The Story of Cunard (2015)

BBC - Ocean Queens: The Story of Cunard (2015)


DOWNLOAD LINKS:
Buy Premium To Support Me & Get Resumable Support & Max Speed


Links are Interchangeable - No Password - Single Extraction
Direct Download


Tags: Queens, Cunard

BBC - Ocean Queens: The Story of Cunard (2015) Fast Download via Rapidshare Hotfile Fileserve Filesonic Megaupload, BBC - Ocean Queens: The Story of Cunard (2015) Torrents and Emule Download or anything related.
Dear visitor, you went to website as unregistered user.
We encourage you to Register or Login to website under your name.
Information
Members of Guest cannot leave comments.