Channel 4 - Amazing Spaces: Floating Homes (2015)

Category: TV Show | Comment: 0

Download Now


Channel 4 - Amazing Spaces: Floating Homes (2015)
Channel 4 - Amazing Spaces: Floating Homes (2015)
HDTV | 1280x720 | .MP4/AVC @ 3006 Kbps | 46mn 42s | Audio: English AAC 160 kbps, 2 channels | Subs: None | 1.03 GiB
Genre: Documentary

"In a special edition of George Clarke's Amazing Spaces, the architect follows his friend, eco-designer Max McMurdo, as he works on his own project. Having sold his house, he plans to use the £50,000 profit to build a custom-designed floating home in a 40ft shipping container, mooring it in a local marina and beginning a new life on the water. As well as following Max's progress, George gets a taste for the lifestyle, visiting a cutting-edge wraparound glass house near Canary Wharf in London's Docklands and travelling to Denmark, a nation responsible for some of the most ingenious floating homes in Europe."

General
Complete name : Amazing.Spaces.Floating.Homes.mp4
Format
: MPEG-4
Format profile : Base Media
Codec ID
: isom
File size
: 1.03 GiB
Duration
: 46mn 42s
Overall bit rate mode : Variable
Overall bit rate : 3 171 Kbps

Video
ID : 1
Format
: AVC
Format/Info
: Advanced Video Codec
Format profile : [email protected]
Format settings, CABAC : No
Format settings, ReFrames : 1 frame
Format settings, GOP : M=1, N=12
Codec ID
: avc1
Codec ID/Info : Advanced Video Coding
Duration
: 46mn 42s
Bit rate
: 3 006 Kbps
Width
: 1 280 pixels
Height
: 720 pixels
Display aspect ratio : 16:9
Frame rate mode : Constant
Frame rate
: 25.000 fps
Color space
: YUV
Chroma subsampling

: 4:2:0
Bit depth
: 8 bits
Scan type
: Progressive
Bits/(Pixel*Frame)

: 0.130
Stream size
: 1 004 MiB (95%)
Encoded date : UTC 2015-11-13 12:17:28
Tagged date
: UTC 2015-11-13 12:17:28

Audio
ID : 2
Format
: AAC
Format/Info
: Advanced Audio Codec
Format profile : LC
Codec ID
: 40
Duration
: 46mn 41s
Bit rate mode : Variable
Bit rate
: 160 Kbps
Channel(s)
: 2 channels
Channel positions: Front: L R
Sampling rate : 48.0 KHz
Compression mode : Lossy
Stream size
: 53.4 MiB (5%)
Encoded date : UTC 2015-11-13 12:17:28
Tagged date
: UTC 2015-11-13 12:17:28

Screenshots:

Channel 4 - Amazing Spaces: Floating Homes (2015)

Channel 4 - Amazing Spaces: Floating Homes (2015)

Channel 4 - Amazing Spaces: Floating Homes (2015)

Channel 4 - Amazing Spaces: Floating Homes (2015)


DOWNLOAD LINKS:
Buy Premium To Support Me & Get Resumable Support & Max Speed


Links are Interchangeable - No Password - Single Extraction
Direct Download


Tags: Channel, Amazing, Spaces, Floating

Channel 4 - Amazing Spaces: Floating Homes (2015) Fast Download via Rapidshare Hotfile Fileserve Filesonic Megaupload, Channel 4 - Amazing Spaces: Floating Homes (2015) Torrents and Emule Download or anything related.
Dear visitor, you went to website as unregistered user.
We encourage you to Register or Login to website under your name.
Information
Members of Guest cannot leave comments.