Necessary Evil: Super-Villains of DC Comics (2013)

Category: TV Show | Comment: 0

Download Now

http://s2.1pic.org/files/2016/09/01/9d69e01d2a73124dc042.jpg

Necessary Evil: Super-Villains of DC Comics (2013)
1080p BluRay | 1920 x 1080 | .MKV/AVC @ 9278 Kbps | 1h 39mn | 6.56 GB
Audio: English AC-3 192 Kbps, 2 channels | Subs: English
Genre: Documentary

A documentary detailing the epic Rogues' Gallery of DC Comics from The Joker and Lex Luthor, Sinestro, Darkseid and more, this documentary will explore the Super Villains of DC Comics.

Directors: Scott Devine, J.M. Kenny
Writer: Bill Finger
Stars: Christopher Lee, Neal Adams, Brian Azzarello

More info: IMDB

MediaInfo


General
Unique ID : 240820130678674331054352204607567587334 (0xB52C4524859E0164A05637E2744A6806)
Complete name : necessary.evil.super.mkv
Format : Matroska
Format version : Version 2
File size : 6.56 GiB
Duration : 1h 39mn
Overall bit rate : 9 468 Kbps
Encoded date : UTC 2014-08-22 20:42:21
Writing application : mkvmerge v7.1.0 ('Good Love') 32bit built on Jul 27 2014 12:59:18
Writing library : libebml v1.3.0 + libmatroska v1.4.1
DURATION : 01:38:51.508000000
NUMBER_OF_FRAMES : 1540
NUMBER_OF_BYTES : 88248
_STATISTICS_WRITING_APP : mkvmerge v7.1.0 ('Good Love') 32bit built on Jul 27 2014 12:59:18
_STATISTICS_WRITING_DATE_UTC : 2014-08-22 20:42:21
_STATISTICS_TAGS : BPS DURATION NUMBER_OF_FRAMES NUMBER_OF_BYTES

Video
ID : 1
Format : AVC
Format/Info : Advanced Video Codec
Format profile : [email protected]
Format settings, CABAC : Yes
Format settings, ReFrames : 4 frames
Codec ID : V_MPEG4/ISO/AVC
Duration : 1h 39mn
Bit rate : 9 278 Kbps
Width : 1 920 pixels
Height : 1 080 pixels
Display aspect ratio : 16:9
Frame rate : 23.976 fps
Color space : YUV
Chroma subsampling : 4:2:0
Bit depth : 8 bits
Scan type : Progressive
Bits/(Pixel*Frame) : 0.187
Stream size : 6.29 GiB (96%)
Writing library : x264 core 142 r2453 ea0ca51
Encoding settings : cabac=1 / ref=4 / deblock=1:0:0 / analyse=0x3:0x133 / me=umh / subme=7 / psy=1 / psy_rd=1.00:0.00 / mixed_ref=1 / me_range=16 / chroma_me=1 / trellis=1 / 8x8dct=1 / cqm=0 / deadzone=21,11 / fast_pskip=0 / chroma_qp_offset=-2 / threads=6 / lookahead_threads=1 / sliced_threads=0 / nr=0 / decimate=1 / interlaced=0 / bluray_compat=0 / constrained_intra=0 / bframes=3 / b_pyramid=2 / b_adapt=2 / b_bias=0 / direct=3 / weightb=1 / open_gop=0 / weightp=2 / keyint=240 / keyint_min=23 / scenecut=40 / intra_refresh=0 / rc_lookahead=50 / rc=2pass / mbtree=1 / bitrate=9278 / ratetol=1.0 / qcomp=0.60 / qpmin=0 / qpmax=69 / qpstep=4 / cplxblur=20.0 / qblur=0.5 / ip_ratio=1.40 / aq=1:1.00
Language : English
Default : Yes
Forced : No
DURATION : 01:39:09.736000000
NUMBER_OF_FRAMES : 142651
NUMBER_OF_BYTES : 6897530762
_STATISTICS_WRITING_APP : mkvmerge v7.1.0 ('Good Love') 32bit built on Jul 27 2014 12:59:18
_STATISTICS_WRITING_DATE_UTC : 2014-08-22 20:42:21
_STATISTICS_TAGS : BPS DURATION NUMBER_OF_FRAMES NUMBER_OF_BYTES

Audio
ID : 2
Format : AC-3
Format/Info : Audio Coding 3
Format profile : Dolby Digital
Mode extension : CM (complete main)
Codec ID : A_AC3
Duration : 1h 39mn
Bit rate mode : Constant
Bit rate : 192 Kbps
Channel(s) : 2 channels
Channel positions : Front: L R
Sampling rate : 48.0 KHz
Bit depth : 16 bits
Compression mode : Lossy
Stream size : 136 MiB (2%)
Language : English
Default : Yes
Forced : No

Text
ID : 3
Format : UTF-8
Codec ID : S_TEXT/UTF8
Codec ID/Info : UTF-8 Plain Text
Language : English
Default : Yes
Forced : Yes

Menu
00:00:00.000 : en:00:00:00.000
00:02:30.567 : en:00:02:30.567
00:14:58.523 : en:00:14:58.523
00:26:01.560 : en:00:26:01.560
00:38:55.333 : en:00:38:55.333
00:55:23.320 : en:00:55:23.320
01:10:55.668 : en:01:10:55.668
01:18:24.199 : en:01:18:24.199
01:28:15.290 : en:01:28:15.290

Screenshots

http://s2.1pic.org/files/2016/09/01/8391d2e08358acb5dea1.jpg

Download link:

ausfile_com:
https://ausfile.com/ar0e4c49n0w6/ivxbo.Necessary.Evil.SuperVillains.of.DC.Comics.2013.part1.rar.html
https://ausfile.com/0v8qr97qn7di/ivxbo.Necessary.Evil.SuperVillains.of.DC.Comics.2013.part2.rar.html
https://ausfile.com/nh5d54v3m11c/ivxbo.Necessary.Evil.SuperVillains.of.DC.Comics.2013.part3.rar.html
https://ausfile.com/9tirm3zd04jk/ivxbo.Necessary.Evil.SuperVillains.of.DC.Comics.2013.part4.rar.html
https://ausfile.com/3l2mrk3lqofh/ivxbo.Necessary.Evil.SuperVillains.of.DC.Comics.2013.part5.rar.html
https://ausfile.com/u6pyeeqrrs4a/ivxbo.Necessary.Evil.SuperVillains.of.DC.Comics.2013.part6.rar.html
https://ausfile.com/jmat8ncfvcy9/ivxbo.Necessary.Evil.SuperVillains.of.DC.Comics.2013.part7.rar.html

nitroflare_com:
http://nitroflare.com/view/68B61015C633B13/ivxbo.Necessary.Evil.SuperVillains.of.DC.Comics.2013.part1.rar
http://nitroflare.com/view/3A5962EF6D47F6A/ivxbo.Necessary.Evil.SuperVillains.of.DC.Comics.2013.part2.rar
http://nitroflare.com/view/7B203E558CC5D79/ivxbo.Necessary.Evil.SuperVillains.of.DC.Comics.2013.part3.rar
http://nitroflare.com/view/8C3216925461B2A/ivxbo.Necessary.Evil.SuperVillains.of.DC.Comics.2013.part4.rar
http://nitroflare.com/view/B6279FF8D48CEBD/ivxbo.Necessary.Evil.SuperVillains.of.DC.Comics.2013.part5.rar
http://nitroflare.com/view/589CB14F8F1FAA7/ivxbo.Necessary.Evil.SuperVillains.of.DC.Comics.2013.part6.rar
http://nitroflare.com/view/9FB598BCBC219C3/ivxbo.Necessary.Evil.SuperVillains.of.DC.Comics.2013.part7.rar

bytewhale_com:
https://bytewhale.com/xp21vcwer10h/ivxbo.Necessary.Evil.SuperVillains.of.DC.Comics.2013.part1.rar
https://bytewhale.com/jt6f43lluzbg/ivxbo.Necessary.Evil.SuperVillains.of.DC.Comics.2013.part2.rar
https://bytewhale.com/19hobsfdgskq/ivxbo.Necessary.Evil.SuperVillains.of.DC.Comics.2013.part3.rar
https://bytewhale.com/lt0lsjgefgpx/ivxbo.Necessary.Evil.SuperVillains.of.DC.Comics.2013.part4.rar
https://bytewhale.com/54mei2ltg48h/ivxbo.Necessary.Evil.SuperVillains.of.DC.Comics.2013.part5.rar
https://bytewhale.com/0oh9d4uhjucl/ivxbo.Necessary.Evil.SuperVillains.of.DC.Comics.2013.part6.rar
https://bytewhale.com/2jmamw7oqf0g/ivxbo.Necessary.Evil.SuperVillains.of.DC.Comics.2013.part7.rar

Links are Interchangeable - No Password - Single Extraction
Direct Download


Tags: Necessary, Villains, Comics

Necessary Evil: Super-Villains of DC Comics (2013) Fast Download via Rapidshare Hotfile Fileserve Filesonic Megaupload, Necessary Evil: Super-Villains of DC Comics (2013) Torrents and Emule Download or anything related.
Dear visitor, you went to website as unregistered user.
We encourage you to Register or Login to website under your name.
Information
Members of Guest cannot leave comments.