RiP: A Remix Manifesto (2009)

Category: TV Show | Comment: 0

Download Now

http://s2.1pic.org/files/2016/09/01/c5a0cd9aaed59a849887.jpg

RiP: A Remix Manifesto (2009)
DVD-Rip | 720 x 404 | .MKV/AVC @ 1233 Kbps | 1h 26mn | 1.02 GB
Audio: English, Italian AC-3 192 Kbps, 2 channels | Subs: Italian
Genre: Documentary, Music

A documentary which examines copyright issues in the information age.

MediaInfo


General
Unique ID : 227375318449343642122840431915728574063 (0xAB0EE4B896FFCEFEBFD6193D14CF166F)
Complete name : RiP.Remix.Manifesto.mkv
Format : Matroska
Format version : Version 2
File size : 1 019 MiB
Duration : 1h 26mn
Overall bit rate : 1 650 Kbps
Movie name : RIP_A_REMIX_MANIFESTO DVD.Title3
Encoded date : UTC 2016-08-26 17:44:14
Writing application : DVDFab 9.1.5.7
Writing library : libebml v0.7.8 + libmatroska v0.8.1

Video
ID : 1
Format : AVC
Format/Info : Advanced Video Codec
Format profile : [email protected]
Format settings, CABAC : Yes
Format settings, ReFrames : 2 frames
Codec ID : V_MPEG4/ISO/AVC
Duration : 1h 26mn
Bit rate : 1 233 Kbps
Width : 720 pixels
Height : 404 pixels
Display aspect ratio : 16:9
Frame rate : 25.000 fps
Color space : YUV
Chroma subsampling : 4:2:0
Bit depth : 8 bits
Scan type : Progressive
Bits/(Pixel*Frame) : 0.170
Stream size : 762 MiB (75%)
Writing library : x264 core
Default : Yes
Forced : No
Color primaries : BT.601-6 525, BT.1358 525, BT.1700 NTSC, SMPTE 170M
Transfer characteristics : BT.709-5, BT.1361
Matrix coefficients : BT.601-6 525, BT.1358 525, BT.1700 NTSC, SMPTE 170M

Audio #1
ID : 2
Format : AC-3
Format/Info : Audio Coding 3
Mode extension : CM (complete main)
Codec ID : A_AC3
Duration : 1h 26mn
Bit rate mode : Constant
Bit rate : 192 Kbps
Channel(s) : 2 channels
Channel positions : Front: L R
Sampling rate : 48.0 KHz
Bit depth : 16 bits
Compression mode : Lossy
Stream size : 119 MiB (12%)
Language : Italian
Default : Yes
Forced : No

Audio #2
ID : 3
Format : AC-3
Format/Info : Audio Coding 3
Mode extension : CM (complete main)
Codec ID : A_AC3
Duration : 1h 26mn
Bit rate mode : Constant
Bit rate : 192 Kbps
Channel(s) : 2 channels
Channel positions : Front: L R
Sampling rate : 48.0 KHz
Bit depth : 16 bits
Compression mode : Lossy
Stream size : 119 MiB (12%)
Language : English
Default : No
Forced : No

Text
ID : 4
Format : VobSub
Codec ID : S_VOBSUB
Codec ID/Info : The same subtitle format used on DVDs
Language : Italian
Default : Yes
Forced : No

Menu
00:00:00.000 : en:(01)00:00:00:000
00:04:05.440 : en:(02)00:04:05:440
00:06:00.760 : en:(03)00:06:00:760
00:11:49.200 : en:(04)00:11:49:200
00:14:59.520 : en:(05)00:14:59:520
00:19:12.760 : en:(06)00:19:12:760
00:22:09.640 : en:(07)00:22:09:640
00:28:49.040 : en:(08)00:28:49:040
00:32:24.280 : en:(09)00:32:24:280
00:41:15.800 : en:(10)00:41:15:800
00:45:51.240 : en:(11)00:45:51:240
00:48:19.560 : en:(12)00:48:19:560
00:55:06.480 : en:(13)00:55:06:480
00:57:16.960 : en:(14)00:57:16:960
01:03:42.160 : en:(15)01:03:42:160
01:08:35.720 : en:(16)01:08:35:720
01:11:10.720 : en:(17)01:11:10:720
01:17:38.000 : en:(18)01:17:38:000

Screenshots

http://s2.1pic.org/files/2016/09/01/ebfa00f97e8a34deb6d6.jpg

Download link:


Links are Interchangeable - No Password - Single Extraction
Direct Download


Tags: Manifesto

RiP: A Remix Manifesto (2009) Fast Download via Rapidshare Hotfile Fileserve Filesonic Megaupload, RiP: A Remix Manifesto (2009) Torrents and Emule Download or anything related.
Dear visitor, you went to website as unregistered user.
We encourage you to Register or Login to website under your name.
Information
Members of Guest cannot leave comments.