Finding Vivian Maier (2013)

Category: TV Show | Comment: 0

Download Now

http://s2.1pic.org/files/2016/09/01/2f11ff82839d50357220.jpg

Finding Vivian Maier (2013)
1080p BluRay | 1920 x 1040 | .MKV/AVC @ 9637 Kbps | 1h 24mn | 6.56 GB
Audio: English DTS 1510 Kbps, 6 channels | Subs: English
Genre: Documentary, Biography, Mystery

A documentary on the late Vivian Maier, a nanny whose previously unknown cache of 100,000 photographs earned her a posthumous reputation as one of the most accomplished street photographers.

Real estate agent John Maloof explains how a trip to a local auction house, in search for old pictures to use for a history book about his neighborhood, resulted in him bidding and winning a box full of old negatives. John goes through the massive quantity of negatives, describes how impressed he is by the quality of the images, becomes quickly determined they are not reverent to his project and just puts them away. That could have very likely had been the end of the story, if the power of the images had not pushed him to fall in love with photography. John confides that his photo hobby quickly motivated him to set up a darkroom and devote large amounts of time shooting. As he learned more about photography, he recognized that those negatives he had bought, then stored, were the work of a real master. In an attempt to confirm his suspicion, he selected about 100 images and put them online with the hope that the feedback would confirm his judgement as to the strength of the images.

Directors: John Maloof, Charlie Siskel
Writers: John Maloof, Charlie Siskel
Stars: Vivian Maier, John Maloof, Daniel Arnaud

More info: IMDB

MediaInfo


General
Unique ID : 203949537400783539372948288449114621807 (0x996F408B181EC17E97A534192145476F)
Complete name : finding.vivian.maier.mkv
Format : Matroska
Format version : Version 2
File size : 6.56 GiB
Duration : 1h 24mn
Overall bit rate : 11.2 Mbps
Encoded date : UTC 2014-11-12 09:08:51
Writing application : mkvmerge v7.0.0 ('Where We Going') 32bit built on Jun 9 2014 15:08:34
Writing library : libebml v1.3.0 + libmatroska v1.4.1
DURATION : 01:21:09.156000000
NUMBER_OF_FRAMES : 1169
NUMBER_OF_BYTES : 55809
_STATISTICS_WRITING_APP : mkvmerge v7.0.0 ('Where We Going') 32bit built on Jun 9 2014 15:08:34
_STATISTICS_WRITING_DATE_UTC : 2014-11-12 09:08:51
_STATISTICS_TAGS : BPS DURATION NUMBER_OF_FRAMES NUMBER_OF_BYTES

Video
ID : 1
Format : AVC
Format/Info : Advanced Video Codec
Format profile : [email protected]
Format settings, CABAC : Yes
Format settings, ReFrames : 4 frames
Codec ID : V_MPEG4/ISO/AVC
Duration : 1h 24mn
Bit rate : 9 637 Kbps
Width : 1 920 pixels
Height : 1 040 pixels
Display aspect ratio : 16:9
Frame rate : 23.976 fps
Color space : YUV
Chroma subsampling : 4:2:0
Bit depth : 8 bits
Scan type : Progressive
Bits/(Pixel*Frame) : 0.201
Stream size : 5.54 GiB (84%)
Writing library : x264 core 142 r2479 dd79a61
Encoding settings : cabac=1 / ref=4 / deblock=1:0:0 / analyse=0x3:0x133 / me=umh / subme=7 / psy=1 / psy_rd=1.00:0.00 / mixed_ref=1 / me_range=16 / chroma_me=1 / trellis=1 / 8x8dct=1 / cqm=0 / deadzone=21,11 / fast_pskip=0 / chroma_qp_offset=-2 / threads=12 / lookahead_threads=2 / sliced_threads=0 / nr=0 / decimate=1 / interlaced=0 / bluray_compat=0 / constrained_intra=0 / bframes=3 / b_pyramid=2 / b_adapt=2 / b_bias=0 / direct=3 / weightb=1 / open_gop=0 / weightp=2 / keyint=250 / keyint_min=23 / scenecut=40 / intra_refresh=0 / rc_lookahead=50 / rc=2pass / mbtree=1 / bitrate=9637 / ratetol=1.0 / qcomp=0.60 / qpmin=0 / qpmax=69 / qpstep=4 / cplxblur=20.0 / qblur=0.5 / ip_ratio=1.40 / aq=1:1.00
Language : English
Default : Yes
Forced : No
DURATION : 01:24:11.880000000
NUMBER_OF_FRAMES : 121124
NUMBER_OF_BYTES : 6087179636
_STATISTICS_WRITING_APP : mkvmerge v7.0.0 ('Where We Going') 32bit built on Jun 9 2014 15:08:34
_STATISTICS_WRITING_DATE_UTC : 2014-11-12 09:08:51
_STATISTICS_TAGS : BPS DURATION NUMBER_OF_FRAMES NUMBER_OF_BYTES

Audio
ID : 2
Format : DTS
Format/Info : Digital Theater Systems
Codec ID : A_DTS
Duration : 1h 24mn
Bit rate mode : Constant
Bit rate : 1 510 Kbps
Channel(s) : 6 channels
Channel positions : Front: L C R, Side: L R, LFE
Sampling rate : 48.0 KHz
Bit depth : 24 bits
Compression mode : Lossy
Stream size : 909 MiB (14%)
Language : English
Default : Yes
Forced : No

Text
ID : 3
Format : UTF-8
Codec ID : S_TEXT/UTF8
Codec ID/Info : UTF-8 Plain Text
Language : English
Default : Yes
Forced : No

Menu
00:00:00.000 : en:00:00:00.000
00:10:42.058 : en:00:10:42.058
00:23:53.265 : en:00:23:53.265
00:36:07.874 : en:00:36:07.874
00:51:01.642 : en:00:51:01.642
01:01:49.623 : en:01:01:49.623
01:14:39.141 : en:01:14:39.141
01:22:11.677 : en:01:22:11.677

Screenshots

http://s2.1pic.org/files/2016/09/01/d24f491c422dad6b8f7a.jpg

Download link:

ausfile_com:
https://ausfile.com/my18ict3iuyc/aqi0y.Finding.Vivian.Maier.2013Repost.part1.rar.html
https://ausfile.com/pdkfgv607yyj/aqi0y.Finding.Vivian.Maier.2013Repost.part2.rar.html
https://ausfile.com/oyixg6bw0gpn/aqi0y.Finding.Vivian.Maier.2013Repost.part3.rar.html
https://ausfile.com/rjjddjqmppaw/aqi0y.Finding.Vivian.Maier.2013Repost.part4.rar.html
https://ausfile.com/uz4c77qgievg/aqi0y.Finding.Vivian.Maier.2013Repost.part5.rar.html
https://ausfile.com/zfq146hzfm4e/aqi0y.Finding.Vivian.Maier.2013Repost.part6.rar.html
https://ausfile.com/llmdq9pqi8di/aqi0y.Finding.Vivian.Maier.2013Repost.part7.rar.html

nitroflare_com:
http://nitroflare.com/view/D608511EA4D1C69/aqi0y.Finding.Vivian.Maier.2013Repost.part1.rar
http://nitroflare.com/view/9E9D54666CF25F6/aqi0y.Finding.Vivian.Maier.2013Repost.part2.rar
http://nitroflare.com/view/8150094A3CAAFB2/aqi0y.Finding.Vivian.Maier.2013Repost.part3.rar
http://nitroflare.com/view/EF62A4B0474E31B/aqi0y.Finding.Vivian.Maier.2013Repost.part4.rar
http://nitroflare.com/view/2D4296469A3DDC3/aqi0y.Finding.Vivian.Maier.2013Repost.part5.rar
http://nitroflare.com/view/2C2FCA45B089D55/aqi0y.Finding.Vivian.Maier.2013Repost.part6.rar
http://nitroflare.com/view/A1EA9CB09459007/aqi0y.Finding.Vivian.Maier.2013Repost.part7.rar

bytewhale_com:
https://bytewhale.com/vhkhu8cjjmne/aqi0y.Finding.Vivian.Maier.2013Repost.part1.rar
https://bytewhale.com/zdz0pruisymf/aqi0y.Finding.Vivian.Maier.2013Repost.part2.rar
https://bytewhale.com/ua5prlynve7b/aqi0y.Finding.Vivian.Maier.2013Repost.part3.rar
https://bytewhale.com/9o9j1jcx0hmn/aqi0y.Finding.Vivian.Maier.2013Repost.part4.rar
https://bytewhale.com/hzzcuhdb42ds/aqi0y.Finding.Vivian.Maier.2013Repost.part5.rar
https://bytewhale.com/wfctjksrbj71/aqi0y.Finding.Vivian.Maier.2013Repost.part6.rar
https://bytewhale.com/rp4jqfycdyxw/aqi0y.Finding.Vivian.Maier.2013Repost.part7.rar

Links are Interchangeable - No Password - Single Extraction
Direct Download


Tags: Finding, Vivian

Finding Vivian Maier (2013) Fast Download via Rapidshare Hotfile Fileserve Filesonic Megaupload, Finding Vivian Maier (2013) Torrents and Emule Download or anything related.
Dear visitor, you went to website as unregistered user.
We encourage you to Register or Login to website under your name.
Information
Members of Guest cannot leave comments.