Dwayne Perkins: Take Note (2016)

Category: TV Show | Comment: 0

Download Now

http://s2.1pic.org/files/2016/09/07/364f3f911b8c896bcb5a.jpg

Dwayne Perkins: Take Note (2016)
WEBRip | 1280 x 720 | .MP4/AVC @ 2139 Kbps | 1h 8mn | 1.11 GB
Audio: English AAC 192 Kbps, 2 channels | Subs: English
Genre: Documentary, Comedy

In his debut special, Brooklyn comic Dwayne Perkins breaks down America's place in the world, the difference between sports and activities and more.

Director: Ian Harris
Writer: Dwayne Perkins
Star: Dwayne Perkins

More info: IMDB

MediaInfo


General
Complete name : Dwayne.Perkins.Take.Note.Special.mp4
Format : MPEG-4
Format profile : Base Media
Codec ID : isom
File size : 1.11 GiB
Duration : 1h 8mn
Overall bit rate mode : Variable
Overall bit rate : 2 336 Kbps
Writing application : Lavf56.30.100

Video
ID : 1
Format : AVC
Format/Info : Advanced Video Codec
Format profile : [email protected]
Format settings, CABAC : Yes
Format settings, ReFrames : 3 frames
Codec ID : avc1
Codec ID/Info : Advanced Video Coding
Duration : 1h 8mn
Bit rate mode : Variable
Bit rate : 2 139 Kbps
Maximum bit rate : 20.0 Mbps
Width : 1 280 pixels
Height : 720 pixels
Display aspect ratio : 16:9
Frame rate mode : Constant
Frame rate : 23.976 fps
Color space : YUV
Chroma subsampling : 4:2:0
Bit depth : 8 bits
Scan type : Progressive
Bits/(Pixel*Frame) : 0.097
Stream size : 1.02 GiB (92%)

Audio
ID : 2
Format : AAC
Format/Info : Advanced Audio Codec
Format profile : LC
Codec ID : 40
Duration : 1h 8mn
Bit rate mode : Constant
Bit rate : 192 Kbps
Channel(s) : 2 channels
Channel positions : Front: L R
Sampling rate : 48.0 KHz
Compression mode : Lossy
Stream size : 93.7 MiB (8%)
Language : English

Text
ID : 3
Format : Apple text
Codec ID : text
Duration : 1h 8mn
Bit rate : 0
Stream size : 23.0 Bytes (0%)
Language : English

Menu
00:00:00.000 : Chapter 1

Screenshots

http://s2.1pic.org/files/2016/09/07/e6e55725bf7569c11bff.jpg

Download link:


Links are Interchangeable - No Password - Single Extraction
Direct Download


Tags: Dwayne, Perkins

Dwayne Perkins: Take Note (2016) Fast Download via Rapidshare Hotfile Fileserve Filesonic Megaupload, Dwayne Perkins: Take Note (2016) Torrents and Emule Download or anything related.
Dear visitor, you went to website as unregistered user.
We encourage you to Register or Login to website under your name.
Information
Members of Guest cannot leave comments.