Demetri Martin: Live (At the Time) (2015)

Category: TV Show | Comment: 0

Download Now

http://s2.1pic.org/files/2016/09/07/c777c19b519b98533a65.jpg

Demetri Martin: Live (At the Time) (2015)
WEBRip | 1280 x 720 | .MP4/AVC @ 2451 Kbps | 1h 0mn | 1.12 GB
Audio: English AAC 192 Kbps, 2 channels | Subs: English
Genre: Documentary, Comedy

Demetri Martin performs his newest stand-up routine at The Lincoln Theater in Washington D.C.

Director: Jay Karas
Writer: Demetri Martin
Star: Demetri Martin
More info: IMDB

MediaInfo


General
Complete name : Demetri.Martin.Live.At.the.Time.mp4
Format : MPEG-4
Format profile : Base Media
Codec ID : isom
File size : 1.12 GiB
Duration : 1h 0mn
Overall bit rate mode : Variable
Overall bit rate : 2 648 Kbps
Writing application : Lavf56.30.100

Video
ID : 1
Format : AVC
Format/Info : Advanced Video Codec
Format profile : [email protected]
Format settings, CABAC : Yes
Format settings, ReFrames : 1 frame
Codec ID : avc1
Codec ID/Info : Advanced Video Coding
Duration : 1h 0mn
Bit rate mode : Variable
Bit rate : 2 451 Kbps
Maximum bit rate : 20.0 Mbps
Width : 1 280 pixels
Height : 720 pixels
Display aspect ratio : 16:9
Frame rate mode : Constant
Frame rate : 25.000 fps
Color space : YUV
Chroma subsampling : 4:2:0
Bit depth : 8 bits
Scan type : Progressive
Bits/(Pixel*Frame) : 0.106
Stream size : 1.03 GiB (93%)

Audio
ID : 2
Format : AAC
Format/Info : Advanced Audio Codec
Format profile : LC
Codec ID : 40
Duration : 1h 0mn
Bit rate mode : Constant
Bit rate : 192 Kbps
Channel(s) : 2 channels
Channel positions : Front: L R
Sampling rate : 48.0 KHz
Compression mode : Lossy
Stream size : 82.9 MiB (7%)
Language : English

Text
ID : 3
Format : Apple text
Codec ID : text
Duration : 1h 0mn
Bit rate : 0
Stream size : 23.0 Bytes (0%)
Language : English

Menu
00:00:00.000 : Chapter 1

Screenshots

http://s2.1pic.org/files/2016/09/07/d0f5013b72100fd12ded.jpg

Download link:

ausfile_com:
https://ausfile.com/4bezeo0c4uhu/jzzd2.Demetri.Martin.Live.At.the.Time.2015.part1.rar.html
https://ausfile.com/iqlean6ehkfl/jzzd2.Demetri.Martin.Live.At.the.Time.2015.part2.rar.html
https://ausfile.com/z7x1lk59djh0/jzzd2.Demetri.Martin.Live.At.the.Time.2015.part3.rar.html
https://ausfile.com/bjmsvjmoky5d/jzzd2.Demetri.Martin.Live.At.the.Time.2015.part4.rar.html
https://ausfile.com/24wxp2494arg/jzzd2.Demetri.Martin.Live.At.the.Time.2015.part5.rar.html

rapidgator_net:
http://rapidgator.net/file/1474a4e5813898f92712127fea5648e5/jzzd2.Demetri.Martin.Live.At.the.Time.2015.part1.rar.html
http://rapidgator.net/file/f07a221647d348bdcb3dea3caf6af46a/jzzd2.Demetri.Martin.Live.At.the.Time.2015.part2.rar.html
http://rapidgator.net/file/1a9430bb3bd91eaff34ba2951cda864c/jzzd2.Demetri.Martin.Live.At.the.Time.2015.part3.rar.html
http://rapidgator.net/file/2b25ad4f0fb1de651719f368cb55acbe/jzzd2.Demetri.Martin.Live.At.the.Time.2015.part4.rar.html
http://rapidgator.net/file/d389b4dd1fe88f70a8d384928cb4386e/jzzd2.Demetri.Martin.Live.At.the.Time.2015.part5.rar.html

nitroflare_com:
http://nitroflare.com/view/981252AC61E70FB/jzzd2.Demetri.Martin.Live.At.the.Time.2015.part1.rar
http://nitroflare.com/view/008F80E2688BB81/jzzd2.Demetri.Martin.Live.At.the.Time.2015.part2.rar
http://nitroflare.com/view/08703B815AEB068/jzzd2.Demetri.Martin.Live.At.the.Time.2015.part3.rar
http://nitroflare.com/view/C1BAD634F490A3F/jzzd2.Demetri.Martin.Live.At.the.Time.2015.part4.rar
http://nitroflare.com/view/564BD5868FAE1C4/jzzd2.Demetri.Martin.Live.At.the.Time.2015.part5.rar

Links are Interchangeable - No Password - Single Extraction
Direct Download


Tags: Demetri, Martin

Demetri Martin: Live (At the Time) (2015) Fast Download via Rapidshare Hotfile Fileserve Filesonic Megaupload, Demetri Martin: Live (At the Time) (2015) Torrents and Emule Download or anything related.
Dear visitor, you went to website as unregistered user.
We encourage you to Register or Login to website under your name.
Information
Members of Guest cannot leave comments.