Kazumi Watanabe - Resonance Vox (1993) CD Rip

Category: Music | Comment: 0

Download Now


Kazumi Watanabe - Resonance Vox (1993) CD Rip



Artist: Kazumi Watanabe
Title: Resonance Vox
Year Of Release: 1993
Label: Polydor[POCH-1250]
Genre: Jazz Rock, Fusion
Quality: FLAC (tracks + .cue,log,scans)
Total Time: 49:49
Total Size: 301 MB(+3%)




Tracklist
01. Ame No Suiyoubi (Rainy Wednesday)
02. BARONG
03. Partido Forte
04. No Money, No Girl, No Business, But We Still Have Music!
05. Pona Pela
06. Karula
07. Glory's Stomp
08. On The Beach
09. IRON CLAW
10. Merci Brice
11. Flor
personnel :
Kazumi Watanabe - Guitar
Vagabone Suzuki - Bass
Rikiya Higashihara - Drums
Tomohiro Yahiro - Percussion
Kazumi Watanabe - Resonance Vox (1993) CD Rip
Exact Audio Copy V1.0 beta 2 from 29. April 2011
EAC extraction logfile from 14. April 2019, 16:41
Kazumi Watanabe Resonance Vox / Resonance Vox
Used drive : TSSTcorpCDDVDW TS-H653Z Adapter: 0 ID: 1
Read mode : Secure
Utilize accurate stream : Yes
Defeat audio cache : Yes
Make use of C2 pointers : No
Read offset correction : 6
Overread into Lead-In and Lead-Out : No
Fill up missing offset samples with silence : Yes
Delete leading and trailing silent blocks : No[/center]

Null samples used in CRC calculations : Yes
Used interface : Native Win32 interface for Win NT & 2000
Gap handling : Appended to previous track
Used output format : User Defined Encoder
Selected bitrate : 768 kBit/s
Quality : High
Add ID3 tag : No
Command line compressor : C:\Program Files\Exact Audio Copy\Flac\flac.exe
Additional command line options : -8 -V -T "ARTIST=%artist%" -T "TITLE=%title%" -T "ALBUM=%albumtitle%" -T "DATE=%year%" -T "TRACKNUMBER=%tracknr%" -T "TOTALTRACKS=%numtracks%" -T "GENRE=%genre%" -T "ALBUMARTIST=%albumartist%" -T "ALBUM ARTIST=%albumartist%
TOC of the extracted CD
Track | Start | Length | Start sector | End sector
---------------------------------------------------------
1 | 0:00.00 | 4:19.22 | 0 | 19446
2 | 4:19.22 | 4:22.03 | 19447 | 39099
3 | 8:41.25 | 5:20.30 | 39100 | 63129
4 | 14:01.55 | 3:27.62 | 63130 | 78716
5 | 17:29.42 | 5:31.65 | 78717 | 103606
6 | 23:01.32 | 3:51.33 | 103607 | 120964
7 | 26:52.65 | 5:41.67 | 120965 | 146606
8 | 32:34.57 | 3:30.38 | 146607 | 162394
9 | 36:05.20 | 3:07.62 | 162395 | 176481
10 | 39:13.07 | 6:15.63 | 176482 | 204669
11 | 45:28.70 | 4:20.25 | 204670 | 224194
Track 1
Filename D:\Rip\01 - Ame No Suiyoubi(Rainy Wednesday).wav
Pre-gap length 0:00:02.00
Peak level 100.0 %
Extraction speed 3.2 X
Track quality 99.9 %
Test CRC D8A50DC0
Copy CRC D8A50DC0
Accurately ripped (confidence 6) [53EEE96E] (AR v2)
Copy OK
Track 2
Filename D:\Rip\02 - BARONG.wav
Pre-gap length 0:00:02.60
Peak level 100.0 %
Extraction speed 4.3 X
Track quality 100.0 %
Test CRC C7562607
Copy CRC C7562607
Accurately ripped (confidence 6) [0FCC1329] (AR v2)
Copy OK
Track 3
Filename D:\Rip\03 - Partido Forte.wav
Pre-gap length 0:00:02.25
Peak level 96.2 %
Extraction speed 4.8 X
Track quality 100.0 %
Test CRC 1073F204
Copy CRC 1073F204
Accurately ripped (confidence 6) [FF31E533] (AR v2)
Copy OK
Track 4
Filename D:\Rip\04 - No Money,No Girl,No Business,-But We Still Have Music!.wav
Pre-gap length 0:00:02.63
Peak level 100.0 %
Extraction speed 3.8 X
Track quality 99.9 %
Test CRC 1954B2F7
Copy CRC 1954B2F7
Accurately ripped (confidence 6) [010785E6] (AR v2)
Copy OK
Track 5
Filename D:\Rip\05 - Pona Pela.wav
Pre-gap length 0:00:03.10
Peak level 74.4 %
Extraction speed 5.5 X
Track quality 100.0 %
Test CRC BCC04D9B
Copy CRC BCC04D9B
Accurately ripped (confidence 6) [2360D32D] (AR v2)
Copy OK
Track 6
Filename D:\Rip\06 - Karula.wav
Pre-gap length 0:00:03.62
Peak level 72.8 %
Extraction speed 5.5 X
Track quality 100.0 %
Test CRC A2B9175F
Copy CRC A2B9175F
Accurately ripped (confidence 6) [578133B2] (AR v2)
Copy OK
Track 7
Filename D:\Rip\07 - Glory's Stomp.wav
Pre-gap length 0:00:02.63
Peak level 98.9 %
Extraction speed 6.1 X
Track quality 100.0 %
Test CRC 29AA124B
Copy CRC 29AA124B
Accurately ripped (confidence 6) [289D3923] (AR v2)
Copy OK
Track 8
Filename D:\Rip\08 - On The Beach.wav
Pre-gap length 0:00:02.62
Peak level 100.0 %
Extraction speed 4.7 X
Track quality 99.9 %
Test CRC 6C5DE6F1
Copy CRC 6C5DE6F1
Accurately ripped (confidence 6) [ACEB2225] (AR v2)
Copy OK
Track 9
Filename D:\Rip\09 - IRON CLAW.wav
Peak level 100.0 %
Extraction speed 6.1 X
Track quality 100.0 %
Test CRC DFAC3D12
Copy CRC DFAC3D12
Accurately ripped (confidence 6) [02BD211D] (AR v2)
Copy OK
Track 10
Filename D:\Rip\10 - Merci Brice.wav
Pre-gap length 0:00:01.62
Peak level 97.8 %
Extraction speed 5.8 X
Track quality 99.9 %
Test CRC 9949168C
Copy CRC 9949168C
Accurately ripped (confidence 6) [F232401E] (AR v2)
Copy OK
Track 11
Filename D:\Rip\11 - Flor.wav
Pre-gap length 0:00:04.38
Peak level 74.2 %
Extraction speed 6.9 X
Track quality 100.0 %
Test CRC 96B4541B
Copy CRC 96B4541B
Accurately ripped (confidence 6) [F2B4590D] (AR v2)
Copy OK
All tracks accurately ripped
No errors occurred
End of status report
==== Log checksum 4685B1ABB2DBEE24F4BBDF38842F4483157A370D96BAAFE87B1774BCF5A5EF88 ====




Buy Premium From My Links To Get Resumable Support,Max Speed & Support Me

Direct Download


Tags: Kazumi, Watanabe, Resonance

Kazumi Watanabe - Resonance Vox (1993) CD Rip Fast Download via Rapidshare Hotfile Fileserve Filesonic Megaupload, Kazumi Watanabe - Resonance Vox (1993) CD Rip Torrents and Emule Download or anything related.
Dear visitor, you went to website as unregistered user.
We encourage you to Register or Login to website under your name.
Information
Members of Guest cannot leave comments.